File Size198.5 MB (208,155,837 bytes)
DownloadGo4Up | Jheberg | MultiUp
  • ClickNupload
  • Fichier
  • Filerio
  • Free
  • Fufox
  • HugeFiles
  • Mightyupload
  • ToutBox
  • Turbobit
  • UpToBox
  • Uplea
  • UploadBaz
  • Uploadable
  • Uploaded
  • Uppit
  • Userscloud
  • ZippyShare
| OpenLoad | Sendspace | SolidFiles | UsersCloud
Encrypted DownloadDirect
Password:
HashesCRC32: 40A6B38F, MD5: 8D8A96C795D97135B894EC77CF1F9B29, SHA1: 7D26E1CDFEF1F85DDF5D2807E310BCE014C74E45, SHA256: 5234A855875F28BF93CD58494CDD2BA1B32C7A50AC6A768E79082213FFEDF5F6, ED2K: 6271B3D81EED925E6CA410AECB9E5BC5
Screenshots
screenshotscreenshotscreenshotscreenshotscreenshot
Additional Info
General
Complete name                            : [JacobSwaggedUp] Maken-Ki! Two - 03 (BD 1280x720).mp4
Format                                   : MPEG-4
Format profile                           : Base Media
Codec ID                                 : isom (isom/avc1/iso6)
File size                                : 199 MiB
Duration                                 : 23mn 42s
Overall bit rate mode                    : Variable
Overall bit rate                         : 1 171 Kbps
Encoded date                             : UTC 2016-08-01 09:34:01
Tagged date                              : UTC 2016-08-01 09:34:01

Video
ID                                       : 1
Format                                   : AVC
Format/Info                              : Advanced Video Codec
Format profile                           : [email protected]
Format settings, CABAC                   : Yes
Format settings, ReFrames                : 4 frames
Codec ID                                 : avc1
Codec ID/Info                            : Advanced Video Coding
Duration                                 : 23mn 42s
Bit rate                                 : 929 Kbps
Maximum bit rate                         : 7 473 Kbps
Width                                    : 1 280 pixels
Height                                   : 720 pixels
Display aspect ratio                     : 16:9
Frame rate mode                          : Constant
Frame rate                               : 23.976 (24000/1001) fps
Color space                              : YUV
Chroma subsampling                       : 4:2:0
Bit depth                                : 8 bits
Scan type                                : Progressive
Bits/(Pixel*Frame)                       : 0.042
Stream size                              : 157 MiB (79%)
Writing library                          : x264 core 148 r2638 7599210
Encoding settings                        : cabac=1 / ref=2 / deblock=1:0:0 / analyse=0x3:0x113 / me=hex / subme=6 / psy=1 / psy_rd=1.00:0.00 / mixed_ref=1 / me_range=16 / chroma_me=1 / trellis=1 / 8x8dct=1 / cqm=0 / deadzone=21,11 / fast_pskip=1 / chroma_qp_offset=-2 / threads=12 / lookahead_threads=2 / sliced_threads=0 / nr=0 / decimate=1 / interlaced=0 / bluray_compat=0 / constrained_intra=0 / bframes=3 / b_pyramid=2 / b_adapt=1 / b_bias=0 / direct=1 / weightb=1 / open_gop=0 / weightp=1 / keyint=240 / keyint_min=23 / scenecut=40 / intra_refresh=0 / rc_lookahead=30 / rc=crf / mbtree=1 / crf=24.0 / qcomp=0.60 / qpmin=0 / qpmax=69 / qpstep=4 / ip_ratio=1.40 / aq=1:1.00
Encoded date                             : UTC 2016-08-01 09:34:01
Tagged date                              : UTC 2016-08-01 09:34:03

Audio
ID                                       : 2
Format                                   : AAC
Format/Info                              : Advanced Audio Codec
Format profile                           : LC
Codec ID                                 : 40
Duration                                 : 23mn 42s
Bit rate mode                            : Variable
Bit rate                                 : 238 Kbps
Maximum bit rate                         : 373 Kbps
Channel(s)                               : 2 channels
Channel positions                        : Front: L R
Sampling rate                            : 48.0 KHz
Frame rate                               : 46.875 fps (1024 spf)
Compression mode                         : Lossy
Stream size                              : 40.3 MiB (20%)
Encoded date                             : UTC 2016-08-01 09:29:35
Tagged date                              : UTC 2016-08-01 09:34:03

Menu
00:00:00.000                             : Intro
00:00:36.036                             : Opening
00:02:06.002                             : Part A
00:10:41.060                             : Part B
00:21:56.030                             : Ending
00:23:26.037                             : Preview

Other Files in this Torrent
[JacobSwaggedUp] Maken-Ki! Two - 03 (BD 1280x720).mp4
beta
Anime DDL+NZB mirror
Current Time: 21/01/2018 04:40



About/FAQs