File Size202.5 MB (212,339,659 bytes)
DownloadGo4Up | Jheberg | MultiUp | OpenLoad | Sendspace | SolidFiles | UsersCloud
Encrypted DownloadDirect
Password:
HashesCRC32: 023E2E07, MD5: C892AB8FD80ECCB96D215F94237E9DD4, SHA1: D1D024509F3F1D6F238D465C7B0DFF2317B6014F, SHA256: DCB7504DCF34A09367192565CCC8DBBB5725B4D7FF42182BF0281943D47388BD, ED2K: A1FAAB55C8B2BE6F2D915919F59068EA
Screenshots
screenshotscreenshotscreenshotscreenshotscreenshot
Additional Info
General
Complete name                            : [JacobSwaggedUp] Maken-Ki! Two - 09 (BD 1280x720).mp4
Format                                   : MPEG-4
Format profile                           : Base Media
Codec ID                                 : isom (isom/avc1/iso6)
File size                                : 203 MiB
Duration                                 : 23mn 42s
Overall bit rate mode                    : Variable
Overall bit rate                         : 1 195 Kbps
Encoded date                             : UTC 2016-08-01 10:02:29
Tagged date                              : UTC 2016-08-01 10:02:29

Video
ID                                       : 1
Format                                   : AVC
Format/Info                              : Advanced Video Codec
Format profile                           : [email protected]
Format settings, CABAC                   : Yes
Format settings, ReFrames                : 4 frames
Codec ID                                 : avc1
Codec ID/Info                            : Advanced Video Coding
Duration                                 : 23mn 42s
Bit rate                                 : 963 Kbps
Maximum bit rate                         : 8 137 Kbps
Width                                    : 1 280 pixels
Height                                   : 720 pixels
Display aspect ratio                     : 16:9
Frame rate mode                          : Constant
Frame rate                               : 23.976 (24000/1001) fps
Color space                              : YUV
Chroma subsampling                       : 4:2:0
Bit depth                                : 8 bits
Scan type                                : Progressive
Bits/(Pixel*Frame)                       : 0.044
Stream size                              : 163 MiB (81%)
Writing library                          : x264 core 148 r2638 7599210
Encoding settings                        : cabac=1 / ref=2 / deblock=1:0:0 / analyse=0x3:0x113 / me=hex / subme=6 / psy=1 / psy_rd=1.00:0.00 / mixed_ref=1 / me_range=16 / chroma_me=1 / trellis=1 / 8x8dct=1 / cqm=0 / deadzone=21,11 / fast_pskip=1 / chroma_qp_offset=-2 / threads=12 / lookahead_threads=2 / sliced_threads=0 / nr=0 / decimate=1 / interlaced=0 / bluray_compat=0 / constrained_intra=0 / bframes=3 / b_pyramid=2 / b_adapt=1 / b_bias=0 / direct=1 / weightb=1 / open_gop=0 / weightp=1 / keyint=240 / keyint_min=23 / scenecut=40 / intra_refresh=0 / rc_lookahead=30 / rc=crf / mbtree=1 / crf=24.0 / qcomp=0.60 / qpmin=0 / qpmax=69 / qpstep=4 / ip_ratio=1.40 / aq=1:1.00
Encoded date                             : UTC 2016-08-01 10:02:29
Tagged date                              : UTC 2016-08-01 10:02:31

Audio
ID                                       : 2
Format                                   : AAC
Format/Info                              : Advanced Audio Codec
Format profile                           : LC
Codec ID                                 : 40
Duration                                 : 23mn 42s
Bit rate mode                            : Variable
Bit rate                                 : 228 Kbps
Maximum bit rate                         : 349 Kbps
Channel(s)                               : 2 channels
Channel positions                        : Front: L R
Sampling rate                            : 48.0 KHz
Frame rate                               : 46.875 fps (1024 spf)
Compression mode                         : Lossy
Stream size                              : 38.6 MiB (19%)
Encoded date                             : UTC 2016-08-01 09:57:45
Tagged date                              : UTC 2016-08-01 10:02:31

Menu
00:00:00.000                             : Intro
00:00:36.036                             : Opening
00:02:06.002                             : Part A
00:11:52.966                             : Part B
00:21:55.988                             : Ending
00:23:25.995                             : Preview

Other Files in this Torrent
[JacobSwaggedUp] Maken-Ki! Two - 09 (BD 1280x720).mp4
beta
Anime DDL+NZB mirror
Current Time: 21/01/2018 04:40



About/FAQs